<?xml version="1.0" standalone="no"?>
<!DOCTYPE svg PUBLIC "-//W3C//DTD SVG 1.1//EN" "http://www.w3.org/Graphics/SVG/1.1/DTD/svg11.dtd" >
<svg xmlns="http://www.w3.org/2000/svg">
<metadata>Generated by IcoMoon</metadata>
<defs>
<font id="FontFPD" horiz-adv-x="1024">
<font-face units-per-em="1024" ascent="960" descent="-64" />
<missing-glyph horiz-adv-x="1024" />
<glyph unicode="&#x20;" horiz-adv-x="512" d="" />
<glyph unicode="&#xe085;" glyph-name="save" d="M640 554.667v170h-426v-170h426zM512 128.667q52 0 90 38t38 90-38 90-90 38-90-38-38-90 38-90 90-38zM726 810.667l170-170v-512q0-34-26-60t-60-26h-596q-36 0-61 26t-25 60v596q0 34 25 60t61 26h512z" />
<glyph unicode="&#xe089;" glyph-name="text" d="M512 682.667l-80-214h160zM406 392.667l-40-94h-88l202 470h64l202-470h-88l-40 94h-212zM214 212.667h596v-84h-596v84z" />
<glyph unicode="&#xe08b;" glyph-name="text-secondary" d="M680 148.667h90l-218 556h-80l-218-556h90l48 128h240zM854 852.667q34 0 59-25t25-59v-684q0-34-25-59t-59-25h-684q-34 0-59 25t-25 59v684q0 34 25 59t59 25h684zM424 362.667l88 236 88-236h-176z" />
<glyph unicode="&#xe0fb;" glyph-name="cloud-download" d="M726 384.667h-128v170h-172v-170h-128l214-214zM826 510.667q82-6 140-67t58-145q0-88-63-151t-151-63h-554q-106 0-181 75t-75 181q0 98 66 171t162 83q42 78 118 126t166 48q116 0 204-73t110-185z" />
<glyph unicode="&#xe0fe;" glyph-name="cloud-upload" d="M598 384.667h128l-214 212-214-212h128v-172h172v172zM826 510.667q82-6 140-67t58-145q0-88-63-151t-151-63h-554q-106 0-181 75t-75 181q0 98 66 171t162 83q42 78 118 126t166 48q116 0 204-73t110-185z" />
<glyph unicode="&#xe1a4;" glyph-name="photo" d="M512 212.667q88 0 151 63t63 151-63 151-151 63-151-63-63-151 63-151 151-63zM384 852.667h256l78-84h136q34 0 59-26t25-60v-512q0-34-25-60t-59-26h-684q-34 0-59 26t-25 60v512q0 34 25 60t59 26h136zM376 426.667q0 56 40 96t96 40 96-40 40-96-40-96-96-40-96 40-40 96z" />
<glyph unicode="&#xe2a3;" glyph-name="info-outline" d="M470 554.667v86h84v-86h-84zM512 84.667q140 0 241 101t101 241-101 241-241 101-241-101-101-241 101-241 241-101zM512 852.667q176 0 301-125t125-301-125-301-301-125-301 125-125 301 125 301 301 125zM470 212.667v256h84v-256h-84z" />
<glyph unicode="&#xe2ab;" glyph-name="locked-full" d="M644 596.667v86q0 54-39 93t-93 39-93-39-39-93v-86h264zM512 212.667q34 0 60 26t26 60-26 60-60 26-60-26-26-60 26-60 60-26zM768 596.667q34 0 60-25t26-59v-428q0-34-26-59t-60-25h-512q-34 0-60 25t-26 59v428q0 34 26 59t60 25h42v86q0 88 63 151t151 63 151-63 63-151v-86h42z" />
<glyph unicode="&#xe2b4;" glyph-name="preview-lightbox" d="M716 162.667l60 60-124 124q30 50 30 102 0 80-56 136t-136 56-136-56-56-136 56-136 136-56q52 0 102 30zM854 768.667q34 0 59-26t25-60v-512q0-34-25-60t-59-26h-684q-34 0-59 26t-25 60v512q0 34 25 60t59 26h684zM490 554.667q44 0 76-31t32-75-32-76-76-32-75 32-31 76 31 75 75 31z" />
<glyph unicode="&#xe2c1;" glyph-name="print" d="M768 810.667v-170h-512v170h512zM810 426.667q18 0 31 12t13 30-13 31-31 13-30-13-12-31 12-30 30-12zM682 128.667v212h-340v-212h340zM810 596.667q52 0 90-38t38-90v-256h-170v-170h-512v170h-170v256q0 52 38 90t90 38h596z" />
<glyph unicode="&#xe2e6;" glyph-name="swap-h" d="M896 554.667l-170-170v128h-300v84h300v128zM298 468.667v-128h300v-84h-300v-128l-170 170z" />
<glyph unicode="&#xe311;" glyph-name="zoom-in" d="M512 512.667h-86v-86h-42v86h-86v42h86v86h42v-86h86v-42zM406 340.667q80 0 136 56t56 136-56 136-136 56-136-56-56-136 56-136 136-56zM662 340.667l212-212-64-64-212 212v34l-12 12q-76-66-180-66-116 0-197 80t-81 196 81 197 197 81 196-81 80-197q0-104-66-180l12-12h34z" />
<glyph unicode="&#xe601;" glyph-name="layers" d="M1024 640l-512 256-512-256 512-256 512 256zM512 811.030l342.058-171.030-342.058-171.030-342.058 171.030 342.058 171.030zM921.444 499.278l102.556-51.278-512-256-512 256 102.556 51.278 409.444-204.722zM921.444 307.278l102.556-51.278-512-256-512 256 102.556 51.278 409.444-204.722z" />
<glyph unicode="&#xe602;" glyph-name="more" d="M512 597.334c47.147 0 85.333 38.187 85.333 85.333s-38.187 85.333-85.333 85.333-85.333-38.187-85.333-85.333 38.187-85.333 85.333-85.333zM512 512c-47.147 0-85.333-38.187-85.333-85.333s38.187-85.333 85.333-85.333 85.333 38.187 85.333 85.333-38.187 85.333-85.333 85.333zM512 256c-47.147 0-85.333-38.187-85.333-85.333s38.187-85.333 85.333-85.333 85.333 38.187 85.333 85.333-38.187 85.333-85.333 85.333z" />
<glyph unicode="&#xe603;" glyph-name="back" d="M896 469.334h-604.587l152.96 152.96-60.373 60.373-256-256 256-256 60.373 60.373-152.96 152.96h604.587z" />
<glyph unicode="&#xe605;" glyph-name="reset" d="M512 682.667v-128l170.667 170.667-170.667 170.667v-128c-188.587 0-341.333-152.747-341.333-341.333 0-66.987 19.627-129.067 52.907-181.76l62.293 62.293c-18.987 35.627-29.867 76.16-29.867 119.467 0 141.44 114.56 256 256 256zM800.427 608.427l-62.293-62.293c18.987-35.627 29.867-76.16 29.867-119.467 0-141.44-114.56-256-256-256v128l-170.667-170.667 170.667-170.667v128c188.587 0 341.333 152.747 341.333 341.333 0 66.987-19.627 129.067-52.907 181.76z" />
<glyph unicode="&#xe606;" glyph-name="remove" d="M622.293 597.334l-110.293-110.293-110.293 110.293-60.373-60.373 110.293-110.293-110.293-110.293 60.373-60.373 110.293 110.293 110.293-110.293 60.373 60.373-110.293 110.293 110.293 110.293-60.373 60.373zM512 853.334c-235.733 0-426.667-190.933-426.667-426.667s190.933-426.667 426.667-426.667 426.667 190.933 426.667 426.667-190.933 426.667-426.667 426.667zM512 85.334c-188.16 0-341.333 153.173-341.333 341.333s153.173 341.333 341.333 341.333 341.333-153.173 341.333-341.333-153.173-341.333-341.333-341.333z" />
<glyph unicode="&#xe607;" glyph-name="reorder" d="M128 298.667h768v85.333h-768v-85.333zM128 128h768v85.333h-768v-85.333zM128 469.334h768v85.333h-768v-85.333zM128 725.334v-85.333h768v85.333h-768z" />
<glyph unicode="&#xe608;" glyph-name="facebook" d="M877.714 164.571q0-68-48.286-116.286t-116.286-48.286h-109.714v347.429h116l17.143 128h-133.143v81.714q0 30.857 16 47.429t54.857 16.571l75.429 0.571v118.286q-54.857 5.143-102.857 5.143-77.714 0-124.571-46t-46.857-128.857v-94.857h-128v-128h128v-347.429h-310.857q-68 0-116.286 48.286t-48.286 116.286v548.571q0 68 48.286 116.286t116.286 48.286h548.571q68 0 116.286-48.286t48.286-116.286v-548.571z" />
<glyph unicode="&#xe609;" glyph-name="instagram" d="M778.286 136v370.286h-77.143q11.429-36 11.429-74.857 0-72-36.571-132.857t-99.429-96.286-137.143-35.429q-112.571 0-192.571 77.429t-80 187.143q0 38.857 11.429 74.857h-80.571v-370.286q0-14.857 10-24.857t24.857-10h610.857q14.286 0 24.571 10t10.286 24.857zM616 440.571q0 70.857-51.714 120.857t-124.857 50q-72.571 0-124.286-50t-51.714-120.857 51.714-120.857 124.286-50q73.143 0 124.857 50t51.714 120.857zM778.286 646.286v94.286q0 16-11.429 27.714t-28 11.714h-99.429q-16.571 0-28-11.714t-11.429-27.714v-94.286q0-16.571 11.429-28t28-11.429h99.429q16.571 0 28 11.429t11.429 28zM877.714 765.143v-652.571q0-46.286-33.143-79.429t-79.429-33.143h-652.571q-46.286 0-79.429 33.143t-33.143 79.429v652.571q0 46.286 33.143 79.429t79.429 33.143h652.571q46.286 0 79.429-33.143t33.143-79.429z" />
<glyph unicode="&#xe60a;" glyph-name="design-library" d="M938.667 256v512c0 47.147-38.187 85.333-85.333 85.333h-512c-47.147 0-85.333-38.187-85.333-85.333v-512c0-47.147 38.187-85.333 85.333-85.333h512c47.147 0 85.333 38.187 85.333 85.333zM469.333 426.667l86.613-115.627 126.72 158.293 170.667-213.333h-512l128 170.667zM85.333 682.667v-597.333c0-47.147 38.187-85.333 85.333-85.333h597.333v85.333h-597.333v597.333h-85.333z" />
<glyph unicode="&#xe60b;" glyph-name="format-align-right" d="M128 42.667h768v85.333h-768v-85.333zM384 213.334h512v85.333h-512v-85.333zM128 384h768v85.333h-768v-85.333zM384 554.667h512v85.333h-512v-85.333zM128 810.667v-85.333h768v85.333h-768z" />
<glyph unicode="&#xe60c;" glyph-name="format-align-left" d="M640 298.667h-512v-85.333h512v85.333zM640 640h-512v-85.333h512v85.333zM128 384h768v85.333h-768v-85.333zM128 42.667h768v85.333h-768v-85.333zM128 810.667v-85.333h768v85.333h-768z" />
<glyph unicode="&#xe60d;" glyph-name="format-align-center" d="M298.667 298.667v-85.333h426.667v85.333h-426.667zM128 42.667h768v85.333h-768v-85.333zM128 384h768v85.333h-768v-85.333zM298.667 640v-85.333h426.667v85.333h-426.667zM128 810.667v-85.333h768v85.333h-768z" />
<glyph unicode="&#xe60e;" glyph-name="format-bold" d="M665.6 478.294c41.173 28.8 70.4 75.307 70.4 119.040 0 96.213-74.453 170.667-170.667 170.667h-266.667v-597.333h300.373c89.387 0 158.293 72.533 158.293 161.707 0 64.853-36.907 120.107-91.733 145.92zM426.667 661.334h128c35.413 0 64-28.587 64-64s-28.587-64-64-64h-128v128zM576 277.334h-149.333v128h149.333c35.413 0 64-28.587 64-64s-28.587-64-64-64z" />
<glyph unicode="&#xe60f;" glyph-name="format-underline" d="M512 213.334c141.44 0 256 114.56 256 256v341.333h-106.667v-341.333c0-82.56-66.773-149.333-149.333-149.333s-149.333 66.773-149.333 149.333v341.333h-106.667v-341.333c0-141.44 114.56-256 256-256zM213.333 128v-85.333h597.333v85.333h-597.333z" />
<glyph unicode="&#xe610;" glyph-name="format-line-spacing" d="M256 640h106.667l-149.333 149.333-149.333-149.333h106.667v-426.667h-106.667l149.333-149.333 149.333 149.333h-106.667v426.667zM426.667 725.334v-85.333h512v85.333h-512zM426.667 128h512v85.333h-512v-85.333zM426.667 384h512v85.333h-512v-85.333z" />
<glyph unicode="&#xe611;" glyph-name="format-italic" d="M426.667 768v-128h94.507l-146.347-341.333h-118.827v-128h341.333v128h-94.507l146.347 341.333h118.827v128z" />
<glyph unicode="&#xe614;" glyph-name="unlocked" d="M512 213.334c47.147 0 85.333 38.187 85.333 85.333s-38.187 85.333-85.333 85.333-85.333-38.187-85.333-85.333 38.187-85.333 85.333-85.333zM768 597.334h-42.667v85.333c0 117.76-95.573 213.333-213.333 213.333s-213.333-95.573-213.333-213.333h81.067c0 72.96 59.307 132.267 132.267 132.267s132.267-59.307 132.267-132.267v-85.333h-388.267c-47.147 0-85.333-38.187-85.333-85.333v-426.667c0-47.147 38.187-85.333 85.333-85.333h512c47.147 0 85.333 38.187 85.333 85.333v426.667c0 47.147-38.187 85.333-85.333 85.333zM768 85.334h-512v426.667h512v-426.667z" />
<glyph unicode="&#xe615;" glyph-name="locked" d="M768 597.334h-42.667v85.333c0 117.76-95.573 213.333-213.333 213.333s-213.333-95.573-213.333-213.333v-85.333h-42.667c-47.147 0-85.333-38.187-85.333-85.333v-426.667c0-47.147 38.187-85.333 85.333-85.333h512c47.147 0 85.333 38.187 85.333 85.333v426.667c0 47.147-38.187 85.333-85.333 85.333zM512 814.934c72.96 0 132.267-59.307 132.267-132.267v-85.333h-260.267v85.333h-4.267c0 72.96 59.307 132.267 132.267 132.267zM768 85.334h-512v426.667h512v-426.667zM512 213.334c47.147 0 85.333 38.187 85.333 85.333s-38.187 85.333-85.333 85.333-85.333-38.187-85.333-85.333 38.187-85.333 85.333-85.333z" />
<glyph unicode="&#xe616;" glyph-name="drag" d="M426.667 554.667h170.667v128h128l-213.333 213.333-213.333-213.333h128v-128zM384 512h-128v128l-213.333-213.333 213.333-213.333v128h128v170.667zM981.333 426.667l-213.333 213.333v-128h-128v-170.667h128v-128l213.333 213.333zM597.333 298.667h-170.667v-128h-128l213.333-213.333 213.333 213.333h-128v128z" />
<glyph unicode="&#xe617;" glyph-name="redo" d="M784.853 486.4c-78.507 68.907-181.333 110.933-294.187 110.933-198.4 0-366.293-129.28-424.96-308.053l100.907-33.28c44.8 136.32 172.8 234.667 324.053 234.667 83.413 0 159.147-30.72 218.24-80.427l-154.24-154.24h384v384l-153.813-153.6z" />
<glyph unicode="&#xe618;" glyph-name="undo" d="M533.333 597.334c-112.853 0-215.68-42.027-294.4-110.933l-153.6 153.6v-384h384l-154.24 154.24c59.093 49.707 134.827 80.427 218.24 80.427 151.253 0 279.253-98.347 324.053-234.667l100.907 33.28c-58.667 178.773-226.56 308.053-424.96 308.053z" />
<glyph unicode="&#xe619;" glyph-name="add" d="M810.667 810.667h-597.333c-47.147 0-85.333-38.187-85.333-85.333v-597.333c0-47.147 38.187-85.333 85.333-85.333h597.333c47.147 0 85.333 38.187 85.333 85.333v597.333c0 47.147-38.187 85.333-85.333 85.333zM725.333 384h-170.667v-170.667h-85.333v170.667h-170.667v85.333h170.667v170.667h85.333v-170.667h170.667v-85.333z" />
<glyph unicode="&#xe61a;" glyph-name="file-upload" d="M384 256h256v256h170.667l-298.667 298.667-298.667-298.667h170.667zM213.333 170.667h597.333v-85.333h-597.333z" />
<glyph unicode="&#xe61c;" glyph-name="flip-horizontal" d="M240 456.8c-115.2-251.2-210.4-465.6-210.4-477.6 0-40 13.6-43.2 204-43.2s210.4 4 228.8 44c15.2 32 13.6 932-0.8 932-7.2 0-95.2-183.2-221.6-455.2zM392 304v-288h-132.8c-123.2 0-132.8 0.8-128 14.4 9.6 23.2 256.8 560.8 259.2 561.6 0.8 0 1.6-129.6 1.6-288zM552 456c0-336 2.4-460.8 9.6-476 18.4-40 38.4-44 228.8-44s204 3.2 204 43.2c0 29.6-417.6 932.8-432 932.8-8.8 0-10.4-79.2-10.4-456z" />
<glyph unicode="&#xe61d;" glyph-name="close" d="M810.667 664.96l-60.373 60.373-238.293-238.293-238.293 238.293-60.373-60.373 238.293-238.293-238.293-238.293 60.373-60.373 238.293 238.293 238.293-238.293 60.373 60.373-238.293 238.293z" />
<glyph unicode="&#xe61e;" glyph-name="flip-vertical" d="M968 930.4c-6.4-1.6-216-97.6-466.4-212-272-125.6-453.6-212.8-453.6-220 0-14.4 900-16 932-0.8 40 18.4 44 38.4 44 228.8 0 178.4-2.4 193.6-32 203.2-6.4 2.4-17.6 2.4-24 0.8zM48 397.6c0-14.4 903.2-432 932.8-432 40 0 43.2 13.6 43.2 204s-4 210.4-44 228.8c-32 15.2-932 13.6-932-0.8zM944 196c0-72.8-2.4-132-5.6-132-4 0.8-134.4 60-290.4 132l-284 132h580v-132z" />
<glyph unicode="&#xe61f;" glyph-name="forward" d="M512 768l-60.373-60.373 238.293-238.293h-519.253v-85.333h519.253l-238.293-238.293 60.373-60.373 341.333 341.333z" />
<glyph unicode="&#xe620;" glyph-name="more-horizontal" d="M256 512c-47.147 0-85.333-38.187-85.333-85.333s38.187-85.333 85.333-85.333 85.333 38.187 85.333 85.333-38.187 85.333-85.333 85.333zM768 512c-47.147 0-85.333-38.187-85.333-85.333s38.187-85.333 85.333-85.333 85.333 38.187 85.333 85.333-38.187 85.333-85.333 85.333zM512 512c-47.147 0-85.333-38.187-85.333-85.333s38.187-85.333 85.333-85.333 85.333 38.187 85.333 85.333-38.187 85.333-85.333 85.333z" />
<glyph unicode="&#xe621;" glyph-name="done" d="M384 248.747l-177.92 177.92-60.373-60.373 238.293-238.293 512 512-60.373 60.373z" />
<glyph unicode="&#xe622;" glyph-name="move-down" d="M682.667 384h-128v426.667h-85.333v-426.667h-128l170.667-170.667 170.667 170.667zM170.667 128v-85.333h682.667v85.333h-682.667z" />
<glyph unicode="&#xe624;" glyph-name="move-up" d="M341.333 469.334h128v-426.667h85.333v426.667h128l-170.667 170.667-170.667-170.667zM170.667 810.667v-85.333h682.667v85.333h-682.667z" />
<glyph unicode="&#xe900;" glyph-name="color" d="M296 128.667l344 344-82 82-344-344zM884 698.667q30-30 0-60l-134-134 82-82-60-60-60 60-382-380h-202v202l380 382-60 60 60 60 82-82 134 134q12 12 30 12t30-12z" />
<glyph unicode="&#xe901;" glyph-name="transparency" d="M512 170.667q106 0 181 75t75 181-75 181-181 75v-512zM854 284.667v-200h-200l-142-140-142 140h-200v200l-140 142 140 142v200h200l142 140 142-140h200v-200l140-142z" />
<glyph unicode="&#xe902;" glyph-name="align-vertical-middle" d="M640 384.667v84h86v-84h-86zM640 42.667v86h86v-86h-86zM640 724.667v86h86v-86h-86zM810 554.667v86h86v-86h-86zM810 810.667h86v-86h-86v86zM810 384.667v84h86v-84h-86zM810 42.667v86h86v-86h-86zM470 42.667v768h84v-768h-84zM810 212.667v86h86v-86h-86zM298 724.667v86h86v-86h-86zM128 212.667v86h86v-86h-86zM128 42.667v86h86v-86h-86zM128 384.667v84h86v-84h-86zM298 384.667v84h86v-84h-86zM298 42.667v86h86v-86h-86zM128 724.667v86h86v-86h-86zM128 554.667v86h86v-86h-86z" />
<glyph unicode="&#xe903;" glyph-name="align-top" d="M640 384.667v84h86v-84h-86zM810 42.667v86h86v-86h-86zM470 554.667v86h84v-86h-84zM640 42.667v86h86v-86h-86zM810 212.667v86h86v-86h-86zM128 810.667h768v-86h-768v86zM810 384.667v84h86v-84h-86zM810 554.667v86h86v-86h-86zM470 212.667v86h84v-86h-84zM128 554.667v86h86v-86h-86zM128 384.667v84h86v-84h-86zM128 42.667v86h86v-86h-86zM128 212.667v86h86v-86h-86zM470 42.667v86h84v-86h-84zM470 384.667v84h84v-84h-84zM298 384.667v84h86v-84h-86zM298 42.667v86h86v-86h-86z" />
<glyph unicode="&#xe904;" glyph-name="align-right" d="M470 554.667v86h84v-86h-84zM470 724.667v86h84v-86h-84zM470 384.667v84h84v-84h-84zM640 724.667v86h86v-86h-86zM640 42.667v86h86v-86h-86zM810 810.667h86v-768h-86v768zM640 384.667v84h86v-84h-86zM470 212.667v86h84v-86h-84zM128 554.667v86h86v-86h-86zM128 212.667v86h86v-86h-86zM128 384.667v84h86v-84h-86zM470 42.667v86h84v-86h-84zM128 42.667v86h86v-86h-86zM298 384.667v84h86v-84h-86zM298 724.667v86h86v-86h-86zM128 724.667v86h86v-86h-86zM298 42.667v86h86v-86h-86z" />
<glyph unicode="&#xe905;" glyph-name="align-left" d="M640 724.667v86h86v-86h-86zM640 384.667v84h86v-84h-86zM810 42.667v86h86v-86h-86zM810 384.667v84h86v-84h-86zM810 810.667h86v-86h-86v86zM810 212.667v86h86v-86h-86zM640 42.667v86h86v-86h-86zM810 554.667v86h86v-86h-86zM128 42.667v768h86v-768h-86zM298 384.667v84h86v-84h-86zM298 724.667v86h86v-86h-86zM298 42.667v86h86v-86h-86zM470 384.667v84h84v-84h-84zM470 554.667v86h84v-86h-84zM470 724.667v86h84v-86h-84zM470 212.667v86h84v-86h-84zM470 42.667v86h84v-86h-84z" />
<glyph unicode="&#xe906;" glyph-name="align-horizontal-middle" d="M810 42.667v86h86v-86h-86zM640 42.667v86h86v-86h-86zM470 212.667v86h84v-86h-84zM810 554.667v86h86v-86h-86zM810 810.667h86v-86h-86v86zM128 384.667v84h768v-84h-768zM470 42.667v86h84v-86h-84zM810 212.667v86h86v-86h-86zM554 810.667v-86h-84v86h84zM554 640.667v-86h-84v86h84zM726 810.667v-86h-86v86h86zM384 810.667v-86h-86v86h86zM214 810.667v-86h-86v86h86zM298 42.667v86h86v-86h-86zM128 212.667v86h86v-86h-86zM214 640.667v-86h-86v86h86zM128 42.667v86h86v-86h-86z" />
<glyph unicode="&#xe907;" glyph-name="align-bottom" d="M214 298.667v-86h-86v86h86zM128 42.667v86h768v-86h-768zM214 468.667v-84h-86v84h86zM810 554.667v86h86v-86h-86zM810 810.667h86v-86h-86v86zM214 640.667v-86h-86v86h86zM810 212.667v86h86v-86h-86zM810 384.667v84h86v-84h-86zM726 810.667v-86h-86v86h86zM554 810.667v-86h-84v86h84zM726 468.667v-84h-86v84h86zM554 640.667v-86h-84v86h84zM214 810.667v-86h-86v86h86zM554 468.667v-84h-84v84h84zM384 810.667v-86h-86v86h86zM554 298.667v-86h-84v86h84zM384 468.667v-84h-86v84h86z" />
<glyph unicode="&#xe908;" glyph-name="resize" d="M831.68 766.656l-0.128-311.52-119.424 119.456-142.528-142.56-85.28 85.28 142.528 142.528-108.288 108.256 313.12-1.44zM367.808 230.24l103.616-101.824-311.104-0.544 0.128 309.76 122.080-122.080 157.6 157.568 85.28-85.28-157.6-157.6z" />
<glyph unicode="&#xe909;" glyph-name="rotate-right" d="M720 278.667q34 46 44 106h86q-12-92-68-166zM554 174.667q60 10 106 44l62-62q-72-56-168-68v86zM850 468.667h-86q-10 60-44 106l62 60q56-74 68-166zM664 702.667l-194-190v166q-92-16-153-87t-61-165 61-165 153-87v-86q-126 16-213 112t-87 226 87 226 213 112v132z" />
<glyph unicode="&#xe90a;" glyph-name="alignment" d="M384 468.667v-84h-86v84h86zM554 298.667v-86h-84v86h84zM810 128.667v596h-596v-596h596zM128 810.667h768v-768h-768v768zM726 468.667v-84h-86v84h86zM554 468.667v-84h-84v84h84zM554 640.667v-86h-84v86h84z" />
<glyph unicode="&#xe90b;" glyph-name="transform" d="M426 596.667v86h256q34 0 60-26t26-60v-256h-86v256h-256zM938 170.667h-170v-86h86l-128-128-128 128h84v86h-340q-34 0-60 26t-26 60v340h-170v86h170v86h-86l128 128 128-128h-84v-512h596v-86z" />
<glyph unicode="&#xe90c;" glyph-name="svg" d="M234.762 644.176h554.476c54.542 0 98.15-43.828 98.15-97.887v-228.578c0-54.072-43.943-97.887-98.15-97.887h-554.476c-54.542 0-98.15 43.828-98.15 97.887v228.578c0 54.072 43.943 97.887 98.15 97.887zM234.36 611.535c-35.956 0-65.106-29.383-65.106-65.023v-229.019c0-35.912 29.453-65.023 65.106-65.023h555.278c35.956 0 65.106 29.383 65.106 65.023v229.019c0 35.912-29.453 65.023-65.106 65.023h-555.278zM299.984 546.247h32.323c36.267 0 65.443-29.229 65.443-65.284h-32.642c0 17.849-14.6 32.642-32.609 32.642h-32.712c-18.157 0-32.609-14.615-32.609-32.642 0-18.154 14.752-32.642 32.95-32.642h32.337c36.307 0 65.284-29.229 65.284-65.284 0-36.307-29.3-65.284-65.443-65.284h-32.323c-36.267 0-65.443 29.243-65.443 65.319v0.188h32.642v-0.369c0-17.601 14.6-32.498 32.609-32.498h32.712c18.157 0 32.609 14.615 32.609 32.642 0 18.154-14.752 32.642-32.95 32.642h-32.337c-36.307 0-65.284 29.229-65.284 65.284 0 36.307 29.3 65.284 65.443 65.284zM512 374.876l-48.965 171.372h-32.642l65.284-228.499h32.642l65.284 228.499h-32.642l-48.965-171.372zM756.817 415.677h-65.284v32.642h97.928v-130.57h-97.769c-36.267 0-65.443 29.317-65.443 65.477v97.54c0 36.537 29.3 65.477 65.443 65.477h97.769v-32.642h-97.932c-18.023 0-32.635-14.484-32.635-32.635v-97.939c0-18.023 14.484-32.635 32.635-32.635h65.29v65.284z" />
<glyph unicode="&#xe90d;" glyph-name="crop-free" d="M810 810.667q34 0 60-26t26-60v-170h-86v170h-170v86h170zM810 128.667v170h86v-170q0-34-26-60t-60-26h-170v86h170zM214 298.667v-170h170v-86h-170q-34 0-60 26t-26 60v170h86zM128 724.667q0 34 26 60t60 26h170v-86h-170v-170h-86v170z" />
<glyph unicode="&#xe90e;" glyph-name="arrow-dropdown" d="M298 512.667h428l-214-214z" />
<glyph unicode="&#xe90f;" glyph-name="type" d="M853.333 810.667v85.333h-256v-85.333h85.333v-768h-85.333v-85.333h256v85.333h-85.333v768zM597.333 710.742c0 4.437-8.32 9.771-13.653 13.568-23.509 17.536-49.493 28.971-78.336 34.261-28.843 5.333-62.507 7.979-101.248 7.979-28.075 0-56.917-4.437-86.4-13.483-29.525-9.003-54.613-19.925-75.349-32.896-24.021-15.189-43.477-32.512-58.453-51.84-14.976-19.371-22.485-39.68-22.485-60.885 0-20.309 5.419-38.613 16.256-54.997s27.776-24.533 50.816-24.533c25.813 0 45.995 6.656 60.544 20.096 14.549 13.312 21.803 28.075 21.803 44.245 0 15.189-2.219 31.787-6.571 49.792-4.437 17.963-6.571 31.573-6.571 40.789 7.381 7.851 20.181 15.317 38.4 22.485 18.176 7.168 37.931 10.709 59.136 10.709 30.891 0 54.741-6.315 71.595-18.987 16.853-12.715 29.867-27.563 39.083-44.629 8.277-15.232 6.101-49.749 6.101-49.749v-101.76c0-11.989-57.899-28.587-121.344-49.792s-102.016-35.712-122.795-43.563c-16.555-6.485-32.512-15.147-51.456-25.941-18.901-10.88-33.28-23.168-44.843-37.035-14.763-16.597-25.387-35.243-32.768-55.979s-10.795-44.245-10.795-70.571c0-50.731 16.597-91.776 49.579-123.136 32.939-31.317 75.093-47.061 126.251-47.061 48.427 0 89.813 18.987 124.16 36.48 34.432 17.621 66.603 43.691 96.555 86.357h4.181c6.016-42.667 19.371-67.029 40.789-83.883l27.819-1.451v625.408zM523.179 203.648c-17.067-21.717-38.059-40.491-62.933-56.491-24.917-15.915-53.76-23.936-86.485-23.936-30.933 0-56.363 9.003-76.416 27.093-20.096 18.005-30.080 46.165-30.080 84.48 0 29.568 6.656 55.168 20.096 76.629 13.312 21.547 31.573 40.107 54.571 55.808 25.429 16.683 52.821 30.507 82.347 41.643 29.483 11.093 59.648 21.248 98.901 32.725v-237.952z" />
<glyph unicode="&#xe910;" glyph-name="keyboard" d="M810 512.667v84h-84v-84h84zM810 384.667v84h-84v-84h84zM682 512.667v84h-84v-84h84zM682 384.667v84h-84v-84h84zM682 212.667v86h-340v-86h340zM298 512.667v84h-84v-84h84zM298 384.667v84h-84v-84h84zM342 468.667v-84h84v84h-84zM342 596.667v-84h84v84h-84zM470 468.667v-84h84v84h-84zM470 596.667v-84h84v84h-84zM854 724.667q34 0 59-25t25-59v-428q0-34-25-59t-59-25h-684q-34 0-59 25t-25 59v428q0 34 25 59t59 25h684z" />
<glyph unicode="&#xe911;" glyph-name="vector-curve" d="M789.333 853.334c35.346 0 64-28.654 64-64s-28.654-64-64-64c-9.813 0-19.2 2.133-27.733 6.4l-157.44-157.867 14.507-19.2c93.44 53.76 203.093 85.333 320 85.333l42.667-1.28v-85.76l-42.667 1.707c-110.080 0-213.333-32-298.667-87.040 0-93.314-75.646-168.96-168.96-168.96 0 0 0 0 0 0-55.040-85.333-87.040-188.587-87.040-298.667l1.707-42.667h-85.76l-1.28 42.667c0 116.907 31.573 226.56 85.333 320l-19.2 14.507-157.867-157.44c4.267-8.533 6.4-17.92 6.4-27.733 0-35.346-28.654-64-64-64s-64 28.654-64 64c0 35.346 28.654 64 64 64 9.813 0 19.2-2.133 27.733-6.4l157.44 157.867c-22.613 28.587-35.84 65.28-35.84 104.533 0 94.257 76.41 170.667 170.667 170.667 39.253 0 75.947-13.227 104.533-35.84l157.867 157.44c-4.267 8.533-6.4 17.92-6.4 27.733 0 35.346 28.654 64 64 64zM469.333 554.667c-47.128 0-85.333-38.205-85.333-85.333s38.205-85.333 85.333-85.333c47.128 0 85.333 38.205 85.333 85.333s-38.205 85.333-85.333 85.333z" />
<glyph unicode="&#xe912;" glyph-name="text-input" horiz-adv-x="960" d="M800 945.778v-995.556h64v995.556h-64zM703.999-46.221h256.002v63.998h-256.002v-63.998zM703.999 878.223h256.002v63.998h-256.002v-63.998zM574.219 752.594v-82.031h-232.031v-606.562h-94.688v606.562h-232.031v82.031h558.75z" />
<glyph unicode="&#xe913;" glyph-name="stroke" horiz-adv-x="945" d="M641.016 374.875l-164.771 479.536-194.172-531.719h376.873l-17.93 52.183zM566.522 349.279l37.247 52.183h-265.385l36.995-52.894 136.731 374.423-74.242 0.711 128.654-374.423zM415.115 822.885h129.808l-37.023 25.952 307.5-847.5 37.023 52.818h-125.769l37.304-26.752-95.021 280.598h-391.082l-101.126-279.846 37.040 26h-117.692l36.859-53.26 319.038 847.5-36.859-25.509zM415.115 901.654h-27.257l-348.691-926.269h202.246l101.126 279.846-37.040-26h335.192l-37.304 26.752 95.021-280.598h210.201l-336.080 926.269h-157.415z" />
<glyph unicode="&#xe914;" glyph-name="curved-text-reverse" d="M997.767 393.156c-24.398 24.398-63.956 24.398-88.355 0-6.774-6.774-11.781-14.726-14.726-23.561l-217.647 0.295-3.24 23.267c101.608 27.39 199.093 81.286 279.79 161.984l28.568 30.335-59.198 59.198-28.273-30.63c-75.985-75.985-169.346-125.169-266.242-146.080-30.932 30.932-72.884 48.309-116.628 48.309s-85.696-17.377-116.628-48.309c-96.896 20.911-190.257 70.095-266.242 146.080l-28.273 30.63-59.198-59.198 28.568-30.335c80.697-80.697 178.182-134.594 279.79-161.984l-3.24-23.267-217.647-0.295c-2.945 8.835-7.952 16.787-14.726 23.561-24.398 24.398-63.956 24.398-88.355 0s-24.398-63.956 0-88.355c24.398-24.398 63.956-24.398 88.355 0 6.774 6.774 11.781 14.726 14.726 23.561l217.647-0.295c4.123-35.342 20.322-69.8 47.417-96.896 65.063-65.063 170.55-65.063 235.612 0 27.095 27.095 43.294 61.554 47.417 96.896l217.647 0.295c2.945-8.835 7.952-16.787 14.726-23.561 24.398-24.398 63.956-24.398 88.355 0s24.398 63.956 0 88.355zM570.719 290.076c-32.531-32.531-85.275-32.531-117.806 0s-32.531 85.275 0 117.806c32.531 32.531 85.275 32.531 117.806 0s32.531-85.275 0-117.806v0 0z" />
<glyph unicode="&#xe915;" glyph-name="curved-text" d="M997.767 481.511c-24.398-24.398-63.956-24.398-88.355 0-6.774 6.774-11.781 14.726-14.726 23.561l-217.647-0.295-3.24-23.267c101.608-27.39 199.093-81.286 279.79-161.984l28.568-30.335-59.198-59.198-28.273 30.63c-75.985 75.985-169.346 125.169-266.242 146.080-30.932-30.932-72.884-48.309-116.628-48.309s-85.696 17.377-116.628 48.309c-96.896-20.911-190.257-70.095-266.242-146.080l-28.273-30.63-59.198 59.198 28.568 30.335c80.697 80.697 178.182 134.594 279.79 161.984l-3.24 23.267-217.647 0.295c-2.945-8.835-7.952-16.787-14.726-23.561-24.398-24.398-63.956-24.398-88.355 0s-24.398 63.956 0 88.355c24.398 24.398 63.956 24.398 88.355 0 6.774-6.774 11.781-14.726 14.726-23.561l217.647 0.295c4.123 35.342 20.322 69.8 47.417 96.896 65.063 65.063 170.55 65.063 235.612 0 27.095-27.095 43.294-61.554 47.417-96.896l217.647-0.295c2.945 8.835 7.952 16.787 14.726 23.561 24.398 24.398 63.956 24.398 88.355 0s24.398-63.956 0-88.355zM570.719 584.591c-32.531 32.531-85.275 32.531-117.806 0s-32.531-85.275 0-117.806c32.531-32.531 85.275-32.531 117.806 0s32.531 85.275 0 117.806v0 0z" />
<glyph unicode="&#xe916;" glyph-name="scaleY" horiz-adv-x="384" d="M256 320v-192h128l-192-192-192 192h128v192zM128 576v192h-128l192 192 192-192h-128v-192z" />
<glyph unicode="&#xe917;" glyph-name="scaleX" d="M384 384h-192v-128l-192 192 192 192v-128h192zM640 512h192v128l192-192-192-192v128h-192z" />
<glyph unicode="&#xe918;" glyph-name="stroke-width" d="M853.333 362.667h-682.667v170.667h682.667z" />
<glyph unicode="&#xe919;" glyph-name="font" d="M896 960h-768c-17.664 0-32-14.336-32-32v-192c0-17.664 14.336-32 32-32h32c17.664 0 32 14.336 32 32l64 96h192v-768l-160-64c-17.664 0-32-14.304-32-32s14.336-32 32-32h448c17.696 0 32 14.304 32 32s-14.304 32-32 32l-160 64v768h192l64-96c0-17.664 14.304-32 32-32h32c17.696 0 32 14.336 32 32v192c0 17.664-14.304 32-32 32z" />
<glyph unicode="&#xe91a;" glyph-name="curve-radius" horiz-adv-x="878" d="M438.857 749.714q-84.571 0-156-41.714t-113.143-113.143-41.714-156 41.714-156 113.143-113.143 156-41.714 156 41.714 113.143 113.143 41.714 156-41.714 156-113.143 113.143-156 41.714zM877.714 438.857q0-119.429-58.857-220.286t-159.714-159.714-220.286-58.857-220.286 58.857-159.714 159.714-58.857 220.286 58.857 220.286 159.714 159.714 220.286 58.857 220.286-58.857 159.714-159.714 58.857-220.286z" />
<glyph unicode="&#xe91b;" glyph-name="jpg" d="M256.219 640h543.562c53.467 0 96.219-42.963 96.219-95.961v-224.078c0-53.009-43.079-95.961-96.219-95.961h-543.562c-53.467 0-96.219 42.963-96.219 95.961v224.078c0 53.009 43.079 95.961 96.219 95.961zM255.826 608c-35.25 0-63.826-28.806-63.826-63.745v-224.511c0-35.205 28.875-63.745 63.826-63.745h544.348c35.25 0 63.826 28.806 63.826 63.745v224.511c0 35.205-28.875 63.745-63.826 63.745h-544.348zM256 416h32v-32c0-17.673 14.165-32 31.967-32h32.067c17.655 0 31.967 14.431 31.967 31.705v160.295h32v-159.811c0-35.82-28.724-64.189-64.156-64.189h-31.688c-35.551 0-64.156 28.739-64.156 64.189v31.811zM448 480v64h95.844c35.551 0 64.156-28.654 64.156-64 0-35.593-28.724-64-64.156-64h-63.844v-96h-32v160zM480 512v-64h64.033c17.655 0 31.967 14.204 31.967 32 0 17.673-14.165 32-31.967 32h-64.033zM768 416v-64h-64.006c-17.795 0-31.994 14.324-31.994 31.994v96.012c0 17.795 14.324 31.994 31.994 31.994h96.006v32h-95.844c-35.432 0-64.156-28.37-64.156-64.189v-95.621c0-35.451 28.605-64.189 64.156-64.189h95.844v128h-96v-32h64z" />
<glyph unicode="&#xe91c;" glyph-name="pdf" d="M256.219 640h543.562c53.467 0 96.219-42.963 96.219-95.961v-224.078c0-53.009-43.079-95.961-96.219-95.961h-543.562c-53.467 0-96.219 42.963-96.219 95.961v224.078c0 53.009 43.079 95.961 96.219 95.961zM255.826 608c-35.25 0-63.826-28.806-63.826-63.745v-224.511c0-35.205 28.875-63.745 63.826-63.745h544.348c35.25 0 63.826 28.806 63.826 63.745v224.511c0 35.205-28.875 63.745-63.826 63.745h-544.348zM672 448h96v-32h-96v-96h-32v224h160v-32h-128v-64zM256 480v64h95.844c35.551 0 64.156-28.654 64.156-64 0-35.593-28.724-64-64.156-64h-63.844v-96h-32v160zM288 512v-64h64.033c17.655 0 31.967 14.204 31.967 32 0 17.673-14.165 32-31.967 32h-64.033zM448 544h95.844c35.551 0 64.156-28.739 64.156-64.189v-95.621c0-35.82-28.724-64.189-64.156-64.189h-95.844v224zM480 512v-160h64.033c17.655 0 31.967 14.199 31.967 31.994v96.012c0 17.67-14.165 31.994-31.967 31.994h-64.033z" />
<glyph unicode="&#xe91d;" glyph-name="png" d="M256.219 640h543.562c53.467 0 96.219-42.963 96.219-95.961v-224.078c0-53.009-43.079-95.961-96.219-95.961h-543.562c-53.467 0-96.219 42.963-96.219 95.961v224.078c0 53.009 43.079 95.961 96.219 95.961zM255.826 608c-35.25 0-63.826-28.806-63.826-63.745v-224.511c0-35.205 28.875-63.745 63.826-63.745h544.348c35.25 0 63.826 28.806 63.826 63.745v224.511c0 35.205-28.875 63.745-63.826 63.745h-544.348zM256 480v64h95.844c35.551 0 64.156-28.654 64.156-64 0-35.593-28.724-64-64.156-64h-63.844v-96h-32v160zM288 512v-64h64.033c17.655 0 31.967 14.204 31.967 32 0 17.673-14.165 32-31.967 32h-64.033zM480 480v-160h-32v224h32l96-160v160h32v-224h-32l-96 160zM768 416v-64h-64.006c-17.795 0-31.994 14.324-31.994 31.994v96.012c0 17.795 14.324 31.994 31.994 31.994h96.006v32h-95.844c-35.432 0-64.156-28.37-64.156-64.189v-95.621c0-35.451 28.605-64.189 64.156-64.189h95.844v128h-96v-32h64z" />
<glyph unicode="&#xe91e;" glyph-name="magnify" d="M405.333 832c153.167 0 277.333-124.166 277.333-277.333 0-68.693-25.173-131.84-66.56-180.48l11.52-11.52h33.707l213.333-213.333-64-64-213.333 213.333v33.707l-11.52 11.52c-48.64-41.387-111.787-66.56-180.48-66.56-153.167 0-277.333 124.166-277.333 277.333s124.166 277.333 277.333 277.333zM405.333 746.667c-106.667 0-192-85.333-192-192s85.333-192 192-192c106.667 0 192 85.333 192 192s-85.333 192-192 192z" />
<glyph unicode="&#xe91f;" glyph-name="qrcode" d="M128 490.667h85.333v-85.333h-85.333v85.333zM469.333 746.667h85.333v-170.667h-85.333v170.667zM384 490.667h170.667v-170.667h-85.333v85.333h-85.333v85.333zM640 490.667h85.333v-85.333h85.333v85.333h85.333v-85.333h-85.333v-85.333h85.333v-170.667h-85.333v-85.333h-85.333v85.333h-170.667v-85.333h-85.333v170.667h170.667v85.333h85.333v85.333h-85.333v85.333zM810.667 149.333v170.667h-85.333v-170.667h85.333zM640 832h256v-256h-256v256zM725.333 746.667v-85.333h85.333v85.333h-85.333zM128 832h256v-256h-256v256zM213.333 746.667v-85.333h85.333v85.333h-85.333zM128 320h256v-256h-256v256zM213.333 234.667v-85.333h85.333v85.333h-85.333z" />
<glyph unicode="&#xe920;" glyph-name="magnet" horiz-adv-x="878" d="M877.714 475.428v-73.143q0-114.857-56.286-206.857t-156.571-143.714-226-51.714-226 51.714-156.571 143.714-56.286 206.857v73.143q0 14.857 10.857 25.714t25.714 10.857h219.429q14.857 0 25.714-10.857t10.857-25.714v-73.143q0-29.714 13.429-51.429t30.571-32.571 40.571-17.143 36.571-7.429 25.143-1.143 25.143 1.143 36.571 7.429 40.571 17.143 30.571 32.571 13.429 51.429v73.143q0 14.857 10.857 25.714t25.714 10.857h219.429q14.857 0 25.714-10.857t10.857-25.714zM292.571 841.143v-219.429q0-14.857-10.857-25.714t-25.714-10.857h-219.429q-14.857 0-25.714 10.857t-10.857 25.714v219.429q0 14.857 10.857 25.714t25.714 10.857h219.429q14.857 0 25.714-10.857t10.857-25.714zM877.714 841.143v-219.429q0-14.857-10.857-25.714t-25.714-10.857h-219.429q-14.857 0-25.714 10.857t-10.857 25.714v219.429q0 14.857 10.857 25.714t25.714 10.857h219.429q14.857 0 25.714-10.857t10.857-25.714z" />
<glyph unicode="&#xe921;" glyph-name="grid" d="M256 576h128v128h-128v-128zM448 576h128v128h-128v-128zM640 704v-128h128v128h-128zM256 384h128v128h-128v-128zM448 384h128v128h-128v-128zM640 384h128v128h-128v-128zM256 192h128v128h-128v-128zM448 192h128v128h-128v-128zM640 192h128v128h-128v-128z" />
<glyph unicode="&#xe922;" glyph-name="corner-resize" d="M420.706 896l-136.126-110.529 171.502-166.373-113.24-113.596-166.021 172.223-112.821-139.553v357.827h356.706zM682.562 391.906l165.931-172.132 111.507 138.053v-357.827h-356.706l137.621 111.858-171.593 166.452 113.24 113.596z" />
<glyph unicode="&#xe923;" glyph-name="corner-rotate" d="M233.057 547.048l-78.893 71.111c-50.717-60.952-84.528-126.984-90.164-198.095h112.704c5.635 45.714 28.176 86.349 56.352 126.984v0 0 0zM176.704 318.476h-112.704c11.27-71.111 39.447-137.143 90.164-198.095l78.893 71.111c-28.176 40.635-50.717 81.27-56.352 126.984v0 0 0zM233.057 49.27c67.623-45.714 140.881-71.111 219.774-81.27v101.587c-50.717 5.079-95.799 25.397-140.881 50.794l-78.893-71.111zM565.535 770.54v157.46l-253.585-228.571 253.585-228.571v198.095c157.786-25.397 281.761-147.302 281.761-299.683s-123.975-274.286-281.761-299.683v-101.587c219.774 25.397 394.465 198.095 394.465 401.27s-174.692 375.873-394.465 401.27v0 0 0z" />
<glyph unicode="&#xe924;" glyph-name="share-twitter" horiz-adv-x="951" d="M925.714 726.857q-38.286-56-92.571-95.429 0.571-8 0.571-24 0-74.286-21.714-148.286t-66-142-105.429-120.286-147.429-83.429-184.571-31.143q-154.857 0-283.429 82.857 20-2.286 44.571-2.286 128.571 0 229.143 78.857-60 1.143-107.429 36.857t-65.143 91.143q18.857-2.857 34.857-2.857 24.571 0 48.571 6.286-64 13.143-106 63.714t-42 117.429v2.286q38.857-21.714 83.429-23.429-37.714 25.143-60 65.714t-22.286 88q0 50.286 25.143 93.143 69.143-85.143 168.286-136.286t212.286-56.857q-4.571 21.714-4.571 42.286 0 76.571 54 130.571t130.571 54q80 0 134.857-58.286 62.286 12 117.143 44.571-21.143-65.714-81.143-101.714 53.143 5.714 106.286 28.571z" />
<glyph unicode="&#xe925;" glyph-name="share-facebook" horiz-adv-x="602" d="M548 953.143v-150.857h-89.714q-49.143 0-66.286-20.571t-17.143-61.714v-108h167.429l-22.286-169.143h-145.143v-433.714h-174.857v433.714h-145.714v169.143h145.714v124.571q0 106.286 59.429 164.857t158.286 58.571q84 0 130.286-6.857z" />
<glyph unicode="&#xe926;" glyph-name="bin" d="M128 640v-640c0-35.2 28.8-64 64-64h576c35.2 0 64 28.8 64 64v640h-704zM320 64h-64v448h64v-448zM448 64h-64v448h64v-448zM576 64h-64v448h64v-448zM704 64h-64v448h64v-448zM848 832h-208v80c0 26.4-21.6 48-48 48h-224c-26.4 0-48-21.6-48-48v-80h-208c-26.4 0-48-21.6-48-48v-80h832v80c0 26.4-21.6 48-48 48zM576 832h-192v63.198h192v-63.198z" />
<glyph unicode="&#xe927;" glyph-name="share-pinterest" horiz-adv-x="878" d="M877.714 448q0-119.429-58.857-220.286t-159.714-159.714-220.286-58.857q-63.429 0-124.571 18.286 33.714 53.143 44.571 93.714 5.143 19.429 30.857 120.571 11.429-22.286 41.714-38.571t65.143-16.286q69.143 0 123.429 39.143t84 107.714 29.714 154.286q0 65.143-34 122.286t-98.571 93.143-145.714 36q-60 0-112-16.571t-88.286-44-62.286-63.143-38.286-74-12.286-76.571q0-59.429 22.857-104.571t66.857-63.429q17.143-6.857 21.714 11.429 1.143 4 4.571 17.714t4.571 17.143q3.429 13.143-6.286 24.571-29.143 34.857-29.143 86.286 0 86.286 59.714 148.286t156.286 62q86.286 0 134.571-46.857t48.286-121.714q0-97.143-39.143-165.143t-100.286-68q-34.857 0-56 24.857t-13.143 59.714q4.571 20 15.143 53.429t17.143 58.857 6.571 43.143q0 28.571-15.429 47.429t-44 18.857q-35.429 0-60-32.571t-24.571-81.143q0-41.714 14.286-69.714l-56.571-238.857q-9.714-40-7.429-101.143-117.714 52-190.286 160.571t-72.571 241.714q0 119.429 58.857 220.286t159.714 159.714 220.286 58.857 220.286-58.857 159.714-159.714 58.857-220.286z" />
<glyph unicode="&#xe928;" glyph-name="share-google-plus" horiz-adv-x="1317" d="M821.143 438.286q0-118.857-49.714-211.714t-141.714-145.143-210.857-52.286q-85.143 0-162.857 33.143t-133.714 89.143-89.143 133.714-33.143 162.857 33.143 162.857 89.143 133.714 133.714 89.143 162.857 33.143q163.429 0 280.571-109.714l-113.714-109.143q-66.857 64.571-166.857 64.571-70.286 0-130-35.429t-94.571-96.286-34.857-132.857 34.857-132.857 94.571-96.286 130-35.429q47.429 0 87.143 13.143t65.429 32.857 44.857 44.857 28 47.429 12.286 42.286h-237.714v144h395.429q6.857-36 6.857-69.714zM1316.571 508v-120h-119.429v-119.429h-120v119.429h-119.429v120h119.429v119.429h120v-119.429h119.429z" />
<glyph unicode="&#xe929;" glyph-name="share-linkedin" horiz-adv-x="878" d="M199.429 602.857v-566.286h-188.571v566.286h188.571zM211.429 777.714q0.571-41.714-28.857-69.714t-77.429-28h-1.143q-46.857 0-75.429 28t-28.571 69.714q0 42.286 29.429 70t76.857 27.714 76-27.714 29.143-70zM877.714 361.143v-324.571h-188v302.857q0 60-23.143 94t-72.286 34q-36 0-60.286-19.714t-36.286-48.857q-6.286-17.143-6.286-46.286v-316h-188q1.143 228 1.143 369.714t-0.571 169.143l-0.571 27.429h188v-82.286h-1.143q11.429 18.286 23.429 32t32.286 29.714 49.714 24.857 65.429 8.857q97.714 0 157.143-64.857t59.429-190z" />
<glyph unicode="&#xe92a;" glyph-name="share-mail" d="M1024 554.286v-453.714q0-37.714-26.857-64.571t-64.571-26.857h-841.143q-37.714 0-64.571 26.857t-26.857 64.571v453.714q25.143-28 57.714-49.714 206.857-140.571 284-197.143 32.571-24 52.857-37.429t54-27.429 62.857-14h1.143q29.143 0 62.857 14t54 27.429 52.857 37.429q97.143 70.286 284.571 197.143 32.571 22.286 57.143 49.714zM1024 722.286q0-45.143-28-86.286t-69.714-70.286q-214.857-149.143-267.429-185.714-5.714-4-24.286-17.429t-30.857-21.714-29.714-18.571-32.857-15.429-28.571-5.143h-1.143q-13.143 0-28.571 5.143t-32.857 15.429-29.714 18.571-30.857 21.714-24.286 17.429q-52 36.571-149.714 104.286t-117.143 81.429q-35.429 24-66.857 66t-31.429 78q0 44.571 23.714 74.286t67.714 29.714h841.143q37.143 0 64.286-26.857t27.143-64.571z" />
<glyph unicode="&#xe92b;" glyph-name="share" horiz-adv-x="878" d="M694.857 374.857q76 0 129.429-53.429t53.429-129.429-53.429-129.429-129.429-53.429-129.429 53.429-53.429 129.429q0 6.857 1.143 19.429l-205.714 102.857q-52.571-49.143-124.571-49.143-76 0-129.429 53.429t-53.429 129.429 53.429 129.429 129.429 53.429q72 0 124.571-49.143l205.714 102.857q-1.143 12.571-1.143 19.429 0 76 53.429 129.429t129.429 53.429 129.429-53.429 53.429-129.429-53.429-129.429-129.429-53.429q-72 0-124.571 49.143l-205.714-102.857q1.143-12.571 1.143-19.429t-1.143-19.429l205.714-102.857q52.571 49.143 124.571 49.143z" />
<glyph unicode="&#xe92c;" glyph-name="ruler" d="M729.549 950.374l-707.123-707.226c-29.901-29.901-29.901-78.746 0.102-108.749l163.072-163.174c29.901-29.901 78.899-30.003 108.749-0.102l707.226 707.226c29.901 29.952 29.901 78.899 0 108.8l-163.123 163.226c-30.054 30.003-78.95 29.85-108.902 0zM201.165 188.826l-38.861-38.861-97.075 97.126 38.861 38.861 97.075-97.126zM356.608 188.826l-38.861-38.861-174.848 174.848 38.861 38.912 174.848-174.899zM356.608 344.269l-38.861-38.861-97.178 97.075 38.912 38.912 97.126-97.126zM434.33 421.99l-38.861-38.861-97.075 97.075 38.861 38.912 97.075-97.126zM589.722 421.99l-38.861-38.861-174.797 174.797 38.861 38.861 174.797-174.797zM589.722 577.382l-38.861-38.861-97.075 97.075 38.861 38.861 97.075-97.075zM667.443 655.053l-38.861-38.861-97.126 97.126 38.861 38.861 97.126-97.126zM822.886 655.053l-38.912-38.861-174.797 174.848 38.861 38.912 174.848-174.899zM822.835 810.445l-38.861-38.861-97.075 97.178 38.861 38.81 97.075-97.126z" />
<glyph unicode="&#xe92d;" glyph-name="arrow-right" horiz-adv-x="987" d="M987.429 440.571q0-8-5.714-13.714l-219.429-202.286q-9.143-8-20-3.429-10.857 5.143-10.857 16.571v128h-713.143q-8 0-13.143 5.143t-5.143 13.143v109.714q0 8 5.143 13.143t13.143 5.143h713.143v128q0 12 10.857 16.571t20-2.857l219.429-200q5.714-5.714 5.714-13.143z" />
<glyph unicode="&#xe92e;" glyph-name="arrow-left" horiz-adv-x="1061" d="M1024 493.714v-109.714q0-8-5.143-13.143t-13.143-5.143h-713.143v-128q0-12-10.857-16.571t-20 2.857l-219.429 200q-5.714 5.714-5.714 13.143 0 8 5.714 13.714l219.429 202.286q9.143 8 20 3.429 10.857-5.143 10.857-16.571v-128h713.143q8 0 13.143-5.143t5.143-13.143z" />
<glyph unicode="&#xe92f;" glyph-name="arrow-up" horiz-adv-x="439" d="M437.143 669.143q-5.143-10.857-16.571-10.857h-128v-713.143q0-8-5.143-13.143t-13.143-5.143h-109.714q-8 0-13.143 5.143t-5.143 13.143v713.143h-128q-12 0-16.571 10.857t2.857 20l200 219.429q5.714 5.714 13.143 5.714 8 0 13.714-5.714l202.857-219.429q7.429-9.143 2.857-20z" />
<glyph unicode="&#xe930;" glyph-name="arrow-down" horiz-adv-x="439" d="M437.143 208.571q4.571-10.857-2.857-20l-200-219.429q-5.714-5.714-13.143-5.714-8 0-13.714 5.714l-202.857 219.429q-7.429 9.143-2.857 20 5.143 10.857 16.571 10.857h128v713.143q0 8 5.143 13.143t13.143 5.143h109.714q8 0 13.143-5.143t5.143-13.143v-713.143h128q12 0 16.571-10.857z" />
<glyph unicode="&#xe931;" glyph-name="name-number" horiz-adv-x="761" d="M183.154-64h-133.846v560.308h-38.308v133.846l82.615 30.923h89.538v-725.077zM750.436 11.692l-86.769-75.692h-239.077l-84.923 75.692v573.231l86.769 76.154h237.231l86.769-76.154v-573.231zM616.59 69.846v457.385h-143.077v-457.385h143.077zM107.991 710.564l-48.769 126.615v-126.615h-44.462v241.692h47.846l48.923-126.769v126.769h44.308v-241.385l0.154-0.308h-48zM322.009 710.564l-10.769 53.846h-46.769l-10.769-53.846h-45.538l48.308 241.692h62.769l48.308-241.692h-45.538zM302.316 809.026l-14.462 72.308-14.462-72.308h28.923zM586.795 710.564h-44.769v136.154l-38.923-83.077-38.769 83.077v-136.154h-44.615v241.692h44.615l38.769-83.077 38.923 83.077h44.769v-241.692zM755.427 710.564h-116.462v241.692h115.538v-44.615h-70.923v-53.846h61.077v-44.769h-61.077v-53.846h71.846v-44.615z" />
<glyph unicode="&#xe932;" glyph-name="brush" d="M884 740.667c16-16 16-44 0-60l-382-382-118 118 382 382c16 16 44 16 60 0zM298 340.667c70 0 128-58 128-128 0-94-76-170-170-170-64 0-130 34-170 86 36 0 84 28 84 84 0 70 58 128 128 128z" />
<glyph unicode="&#xe933;" glyph-name="format-align-justify" d="M128 810.667h768v-86h-768v86zM128 554.667v86h768v-86h-768zM128 384.667v84h768v-84h-768zM128 212.667v86h768v-86h-768zM128 42.667v86h768v-86h-768z" />
<glyph unicode="&#xe934;" glyph-name="crop" d="M298 212.667h684v-84h-172v-172h-84v172h-428c-46 0-84 38-84 84v428h-172v84h172v172h84v-684zM726 298.667v342h-342v84h342c46 0 84-38 84-84v-342h-84z" />
<glyph unicode="&#xe935;" glyph-name="advanced-editing" d="M128 128.667h426l-136 182-106-138-78 92zM42 468.667h598v-426h-512c-46 0-86 40-86 86v340zM214 810.667h84v-86h-84v86zM384 810.667h86v-86h-86v86zM128 810.667v-86h-86c0 42 44 86 86 86zM726 128.667h84v-86h-84v86zM726 810.667h84v-86h-84v86zM42 640.667h86v-86h-86v86zM896 810.667c42 0 86-44 86-86h-86v86zM896 640.667h86v-86h-86v86zM554 810.667h86v-86h-86v86zM982 128.667c0-42-44-86-86-86v86h86zM896 468.667h86v-84h-86v84zM896 298.667h86v-86h-86v86z" />
<glyph unicode="&#xe936;" glyph-name="none" d="M512 84.667c188 0 342 154 342 342 0 76-28 150-74 210l-478-478c60-46 134-74 210-74zM170 426.667c0-76 28-150 74-210l478 478c-60 46-134 74-210 74-188 0-342-154-342-342zM512 852.667c234 0 426-192 426-426s-192-426-426-426-426 192-426 426 192 426 426 426z" />
<glyph unicode="&#xe937;" glyph-name="lowercase" horiz-adv-x="922" d="M678.707 484.045c-41.506-17.476-83.558-28.945-126.157-34.406s-85.197-9.83-127.795-13.107c-75.367-5.461-134.076-22.391-176.128-50.79s-63.078-71.543-63.078-129.434c0-26.215 5.188-48.879 15.565-67.994s24.030-34.952 40.96-47.514c16.93-12.561 36.591-21.845 58.982-27.853s45.056-9.011 67.994-9.011c39.322 0 77.551 4.915 114.688 14.746s70.178 24.849 99.123 45.056c28.945 20.207 52.156 45.875 69.632 77.005s26.214 67.993 26.214 110.592v132.71zM513.229 533.197c18.569 2.185 40.687 5.461 66.355 9.83s46.694 10.376 63.078 18.022c16.384 7.646 26.487 20.48 30.31 38.502s5.734 34.679 5.734 49.971c0 50.245-16.111 91.477-48.333 123.699s-86.562 48.333-163.021 48.333c-33.86 0-64.99-3.004-93.389-9.011s-53.248-16.384-74.547-31.13c-21.299-14.746-38.775-34.406-52.429-58.982s-22.665-55.432-27.034-92.57h-99.942c3.277 50.245 14.746 93.116 34.406 128.614s45.056 64.444 76.186 86.835c31.13 22.392 67.174 38.775 108.134 49.152s84.377 15.565 130.253 15.565c42.599 0 82.739-4.642 120.422-13.926s70.451-24.030 98.304-44.237c27.853-20.207 49.698-47.24 65.536-81.101s23.757-75.366 23.757-124.518v-462.029c0-38.23 6.827-62.532 20.48-72.909s41.233-7.919 82.739 7.373v-77.005c-7.646-2.185-18.842-5.461-33.587-9.83s-29.218-6.554-43.418-6.554c-15.292 0-30.037 1.638-44.237 4.915-16.384 2.185-29.491 7.373-39.322 15.565s-17.749 18.022-23.757 29.491c-6.007 11.469-10.103 24.030-12.288 37.683s-3.277 28.126-3.277 43.418c-41.506-45.875-89.019-80.828-142.541-104.858s-111.411-36.045-173.67-36.045c-37.137 0-72.909 4.915-107.315 14.746s-64.717 25.122-90.931 45.875c-26.215 20.753-46.967 46.148-62.259 76.186s-22.938 65.809-22.938 107.315c0 144.18 98.849 229.376 296.55 255.59l135.987 18.022z" />
<glyph unicode="&#xe938;" glyph-name="uppercase" horiz-adv-x="939" d="M34.475-64l386.389 983.040h105.131l376.832-983.040h-95.573l-113.323 308.565h-447.829l-116.053-308.565h-95.573zM277.504 323.755h385.024l-192.512 516.096-192.512-516.096z" />
<glyph unicode="&#xe939;" glyph-name="guided-tour" d="M606 332.667l162 350-350-162-162-350zM512 852.667c236 0 426-190 426-426s-190-426-426-426-426 190-426 426 190 426 426 426zM512 472.667c26 0 46-20 46-46s-20-46-46-46-46 20-46 46 20 46 46 46z" />
<glyph unicode="&#xe93a;" glyph-name="text-transform" horiz-adv-x="1536" d="M35.021 38.4l347.75 884.736h94.618l339.149-884.736h-86.016l-101.99 277.709h-403.046l-104.448-277.709h-86.016zM253.747 387.379h346.522l-173.261 464.486-173.261-464.486zM1341.235 372.634c-31.13-13.107-62.669-21.709-94.618-25.805s-63.897-7.373-95.846-9.83c-56.525-4.096-100.557-16.793-132.096-38.093s-47.309-53.657-47.309-97.075c0-19.661 3.891-36.659 11.674-50.995s18.022-26.214 30.72-35.635c12.698-9.421 27.443-16.384 44.237-20.89s33.792-6.758 50.995-6.758c29.491 0 58.163 3.686 86.016 11.059s52.633 18.637 74.342 33.792c21.709 15.155 39.117 34.406 52.224 57.754s19.661 50.995 19.661 82.944v99.533zM1217.126 409.498c13.926 1.638 30.515 4.096 49.766 7.373s35.021 7.782 47.309 13.517c12.288 5.734 19.866 15.36 22.733 28.877s4.301 26.010 4.301 37.478c0 37.683-12.083 68.608-36.25 92.774s-64.921 36.25-122.266 36.25c-25.395 0-48.742-2.253-70.042-6.758s-39.936-12.288-55.91-23.347c-15.974-11.059-29.082-25.805-39.322-44.237s-16.998-41.574-20.275-69.427h-74.957c2.458 37.683 11.059 69.837 25.805 96.461s33.792 48.333 57.139 65.126c23.347 16.794 50.381 29.082 81.101 36.864s63.283 11.674 97.69 11.674c31.949 0 62.054-3.482 90.317-10.445s52.838-18.022 73.728-33.178c20.89-15.155 37.274-35.43 49.152-60.826s17.818-56.525 17.818-93.389v-346.522c0-28.672 5.12-46.899 15.36-54.682s30.925-5.939 62.054 5.53v-57.754c-5.734-1.638-14.131-4.096-25.19-7.373s-21.914-4.915-32.563-4.915c-11.469 0-22.528 1.229-33.178 3.686-12.288 1.638-22.118 5.53-29.491 11.674s-13.312 13.517-17.818 22.118c-4.506 8.602-7.578 18.022-9.216 28.262s-2.458 21.094-2.458 32.563c-31.13-34.407-66.765-60.621-106.906-78.643s-83.558-27.034-130.253-27.034c-27.853 0-54.681 3.686-80.486 11.059s-48.538 18.842-68.198 34.406c-19.661 15.565-35.226 34.611-46.694 57.139s-17.203 49.357-17.203 80.486c0 108.135 74.137 172.032 222.413 191.693l101.99 13.517z" />
<glyph unicode="&#xe93b;" glyph-name="pixabay" horiz-adv-x="1615" d="M385.454 535.985c-36.714 25.98-63.391 52.318-63.391 84.809h-204.145c0-58.471-26.677-84.809-59.592-84.809h-54.519v-593.667h1060.104v593.667h-678.457zM322.055 366.37h-191.034v84.809h212.021v-68.243l-20.987-16.567zM680.888 36.199c-120.948 0-219.358 97.141-219.358 216.55s98.404 211.556 219.358 211.556c120.948 0 219.347-92.142 219.347-211.556 0-119.407-98.396-216.55-219.347-216.55zM798.806 252.749c0-64.188-52.9-116.419-117.908-116.419-65.020 0-117.918 52.23-117.918 116.419 0 64.195 52.899 116.409 117.918 116.409 65.010 0 117.908-52.222 117.908-116.409zM1615.198 616.744l-263.928-672.831-202.52 81.217v114.667l140.647-57.557 185.713 473.405-695.898 266.082-64.5-200.936h-116.124l118.742 339.24 897.867-343.285z" />
<glyph unicode="&#xe93c;" glyph-name="depositphotos" d="M659.602 337.449c-18.824-22.73-47.149-37.063-78.655-37.063-56.435 0-101.986 45.693-101.986 102.312 0 31.605 14.283 60.014 36.951 78.904l1.817 1.349-4.553-6.143c-10.872-16.353-17.215-35.905-17.215-57.060 0-56.604 45.551-102.312 101.986-102.312 21.081 0 40.565 6.366 56.875 17.276l6.116 4.568-1.337-1.832zM584.895 532.675c-70.476 0-127.582-57.29-127.582-127.778 0-70.469 57.106-127.774 127.582-127.774 70.266 0 127.368 57.305 127.368 127.774 0 70.488-57.102 127.778-127.368 127.778zM584.293 232.918c-95.257 0-172.8 77.582-172.8 172.911 0 95.318 77.543 172.689 172.8 172.689 95.234 0 172.574-77.371 172.574-172.689 0-95.329-77.34-172.911-172.574-172.911zM584.293 618.74c-117.978 0-213.89-95.745-213.89-213.793 0-118.078 95.912-214.059 213.89-214.059 117.982 0 213.024 95.981 213.024 214.059 0 118.047-95.042 213.793-213.024 213.793zM880.135 609.287h-35.787c-12.198 0-22.128-9.897-22.128-22.403v-23.941c0-12.501 9.93-22.672 22.128-22.672h35.787c12.179 0 22.128 10.171 22.128 22.672v23.941c0 12.506-9.949 22.403-22.128 22.403zM968.492 222.973c0-58.202-42.297-87.99-100.001-87.99h-569.497c-65.821 0-100.337 13.421-100.337 82.468v358.71c0 68.755 36.273 99.331 102.094 99.331h124.163c0 0 38.312 65.001 38.714 65.16 3.874 6.015 13.846 20.378 38.549 20.378 22.538 0 130.878 0 140.72 0 25.439 0 34.724-11.461 39.676-20.378 0.897-1.606 40.347-65.16 40.347-65.16h146.238c65.564 0 99.334-30.576 99.334-99.331v-353.188zM953.232 707.733c-88.474 150.589-258.821 251.93-444.655 251.93-280.264 0-508.578-229.351-508.578-511.958 0-282.616 228.313-511.705 508.578-511.705 135.029 0 265.573 52.744 356.599 139.631 84.384 2.583 155.658 41.182 159.080 147.675v373.742c0 49.248-29.237 91.52-71.024 110.685z" />
<glyph unicode="&#xe93d;" glyph-name="text-layers" d="M170 384.667h428v-86h-428v86zM170 554.667h684v-86h-684v86z" />
<glyph unicode="&#xe93e;" glyph-name="color-fill" d="M0 84.667h1024v-170h-1024v170zM810 448.667c0 0 86-94 86-150 0-46-40-86-86-86s-84 40-84 86c0 56 84 150 84 150zM222 512.667h410l-206 204zM706 556.667c26-26 26-66 0-90l-234-234c-12-12-30-20-46-20s-32 8-44 20l-236 234c-26 24-26 64 0 90l220 220-102 102 62 60z" />
<glyph unicode="&#xe93f;" glyph-name="shadow-blur" d="M522.394 944.077c-1.382 11.008-19.456 11.008-20.787 0-45.21-363.878-276.378-438.886-276.378-691.814 0-156.314 131.277-282.982 286.771-282.982 155.443 0 286.72 126.72 286.72 282.982 0 252.928-231.117 327.936-276.326 691.814zM478.72 541.798c-3.021-11.213-6.298-22.733-9.677-34.714-20.531-72.909-43.827-155.597-43.827-251.187 0-51.814-30.618-70.195-59.187-70.195-32.717 0-59.187 26.778-59.187 59.699 0 112.998 54.374 186.829 102.4 251.904 15.104 20.378 29.286 39.68 40.806 58.88 5.274 8.806 19.456 8.397 25.907-0.307 3.021-4.096 4.045-9.318 2.765-14.080z" />
<glyph unicode="&#xe940;" glyph-name="layout" d="M426 724.667h470v-256h-470v256zM682 170.667v256h214v-256h-214zM170 170.667v554h214v-554h-214zM426 170.667v256h214v-256h-214z" />
<glyph unicode="&#xe941;" glyph-name="letter-spacing" horiz-adv-x="1210" d="M1040.758 35.46l-0.219-46.698 170.539 77.035-169.725 75.215-0.28-46.699-870.754-4.656 0.22 46.698-170.539-77.035 169.724-75.215 0.28 46.699 435.377 2.328zM566.784 308.364h-62.836c-7.261 0-13.126 1.815-17.594 5.446s-7.82 8.239-10.054 13.824l-56.134 144.943h-269.359l-56.134-144.943c-1.955-5.027-5.306-9.495-10.054-13.405s-10.612-5.865-17.594-5.865h-62.836l240.035 600.297h82.525l240.035-600.297zM173.428 531.223h224.116l-94.255 244.224c-6.144 15.081-12.148 33.932-18.013 56.553-3.072-11.45-6.074-21.993-9.007-31.628s-5.795-18.083-8.588-25.344l-94.255-243.805zM646.423 908.66h64.931c7.261 0 13.126-1.815 17.594-5.446s7.82-8.239 10.054-13.824l169.658-423.517c3.91-9.495 7.471-19.828 10.682-30.999s6.353-22.761 9.425-34.769c2.513 12.009 5.236 23.598 8.169 34.769s6.353 21.504 10.263 30.999l168.82 423.517c1.955 4.748 5.306 9.146 10.054 13.196s10.612 6.074 17.594 6.074h65.35l-244.643-600.297h-73.309l-244.643 600.297z" />
<glyph unicode="&#xe942;" glyph-name="copy" d="M810 42.667v598h-468v-598h468zM810 724.667c46 0 86-38 86-84v-598c0-46-40-86-86-86h-468c-46 0-86 40-86 86v598c0 46 40 84 86 84h468zM682 896.667v-86h-512v-598h-84v598c0 46 38 86 84 86h512z" />
<glyph unicode="&#xe943;" glyph-name="views" d="M768 682.667h170v-470h-170v470zM86 212.667v470h170v-470h-170zM298 128.667v640h428v-640h-428z" />
<glyph unicode="&#xe944;" glyph-name="font-size" horiz-adv-x="1109" d="M1106.958 939.458v-109.375h-309.375v-808.75h-126.25v808.75h-309.375v109.375zM468.030 593.067v-68.712h-194.358v-508.079h-79.314v508.079h-194.358v68.712z" />
<glyph unicode="&#xe945;" glyph-name="star-outline" d="M512 280.667l160-96-42 182 142 124-188 16-72 172-72-172-188-16 142-124-42-182zM938 544.667l-232-202 70-300-264 160-264-160 70 300-232 202 306 26 120 282 120-282z" />
<glyph unicode="&#xe946;" glyph-name="star" d="M512 202.667l-264-160 70 300-232 202 306 26 120 282 120-282 306-26-232-202 70-300z" />
<glyph unicode="&#xe947;" glyph-name="thumb-up-outline" d="M170 554.667q18 0 31-12t13-30v-384q0-18-13-31t-31-13h-84v470h84zM598 852.667l18-20q24-24 38-52 6-14 4-28l-40-198h236q34 0 59-26t25-60v-46q0-18-6-34l-114-262q-26-42-74-42h-346q-42 0-71 29t-29 71v334q0 36 26 62zM560 694.667l-176-174v-336q0-14 14-14h346l110 252v46h-236q-38 0-65 31t-17 71z" />
<glyph unicode="&#xe948;" glyph-name="thumb-up" d="M932 388.667l-114-262q-26-42-74-42h-346q-40 0-70 30t-30 70v334q0 36 26 62l274 272 18-20q24-24 38-52 6-14 4-28l-40-198h236q34 0 59-26t25-60v-46q0-18-6-34zM86 84.667v470h84q18 0 31-12t13-30v-384q0-18-13-31t-31-13h-84z" />
<glyph unicode="&#xe949;" glyph-name="fullscreen" d="M896 468.667v342h-342l142-140-428-428-140 142v-342h342l-142 140 428 428z" />
<glyph unicode="&#xe94a;" glyph-name="fullscreen-close" d="M938 792.667l-226-226 142-140h-342v342l140-142 226 226zM146 0.667l226 226 140-142v342h-342l142-140-226-226z" />
</font>
</defs>
</svg>
